聚优库

 找回密码
 立即注册
查看: 2796|回复: 91

070526 MBC 蔡妍 My Love Remix[115/30天/414M/TP]

  [复制链接]
发表于 2011-6-18 11:20:39 | 显示全部楼层 |阅读模式
看高品质电影上原盘网高清影视论坛LongBT!

56687757201106172314132476416849257_001.jpg
H:\蔡妍\070526 蔡妍 My Love Remix MBC.tp
   General #3089
      ID : 3089 (0xC11)
      Complete name : H:\蔡妍\070526 蔡妍 My Love Remix MBC.tp
      Format : MPEG-TS
      File size : 414 MiB
      Duration : 3mn 10s
      Overall bit rate : 18.2 Mbps
   Video #17
      ID : 17 (0x11)
      Menu ID : 1 (0x1)
      Format : MPEG Video
      Format version : Version 2
      Format profile : Main@High
      Format settings, BVOP : Yes
      Format settings, Matrix : Default
      Format settings, GOP : M=2, N=16
      Codec ID : 2
      Duration : 3mn 9s
      Bit rate mode : Variable
      Bit rate : 17.4 Mbps
      Width : 1 920 pixels
      Height : 1 080 pixels
      Display aspect ratio : 16:9
      Frame rate : 29.970 fps
      Standard : Component
      Color space : YUV
      Chroma subsampling : 4:2:0
      Bit depth : 8 bits
      Scan type : Interlaced
      Scan order : Bottom Field First
      Compression mode : Lossy
      Bits/(Pixel*Frame) : 0.280
      Stream size : 382 MiB (92%)
   Audio #20
      ID : 20 (0x14)
      Menu ID : 1 (0x1)
      Format : AC-3
      Format/Info : Audio Coding 3
      Mode extension : CM (complete main)
      Codec ID : 129
      Duration : 3mn 10s
      Bit rate mode : Constant
      Bit rate : 448 Kbps
      Channel(s) : 2 channels
      Channel positions : Front: L R
      Sampling rate : 48.0 KHz
      Bit depth : 16 bits
      Compression mode : Lossy
      Delay relative to video : -461ms
      Stream size : 10.2 MiB (2%)
      Language : Korean

-------------------------------------------------------------------------

原盘网高清影视论坛LongBT提醒-影片下载地址:

游客,如果您要查看本帖隐藏内容请回复

升级为VIP会员可以无限制下载,且无需回复直接获取下载地址


本影视来自互联网,仅供LongBT网友测试交流使用,请在24小时内请自觉删除。
若喜欢本片,请支持购买正版!转载注明"原盘网高清影视论坛LongBT"
发表于 2011-6-18 11:23:48 | 显示全部楼层
看看 是不是好
发表于 2011-6-18 11:29:48 | 显示全部楼层
发表于 2011-6-18 11:47:22 | 显示全部楼层
不错的MV 下个
发表于 2011-6-18 13:23:45 | 显示全部楼层
蔡妍我喜欢,她好性··感
发表于 2011-6-22 09:47:45 | 显示全部楼层
此QQ 309679679是个大骗子,冒充别人QQ309679679诈骗我500元钱十足的骗子
此QQ 309679679是个大骗子,冒充别人QQ309679679诈骗我500元钱十足的骗子
此QQ 309679679是个大骗子,冒充别人QQ309679679诈骗我500元钱十足的骗子
此QQ 309679679是个大骗子,冒充别人QQ309679679诈骗我500元钱十足的骗子此QQ 309679679是个大骗子,冒充别人QQ309679679诈骗我500元钱十足的骗子

发表于 2011-6-24 21:23:23 | 显示全部楼层
值得欣赏,MV
发表于 2011-6-24 21:56:41 | 显示全部楼层
喜欢蔡妍,支持楼主
发表于 2011-6-28 19:14:17 | 显示全部楼层
好东西谢谢分享
发表于 2011-6-28 19:20:32 | 显示全部楼层
要怎么验证
发表于 2011-7-4 22:10:35 | 显示全部楼层
不错的MV 下个
发表于 2011-8-12 20:35:18 | 显示全部楼层
应该是很好听的歌曲
发表于 2011-10-2 16:52:58 | 显示全部楼层
好东西不能下啊   
发表于 2011-11-26 13:52:58 | 显示全部楼层
支持楼主发帖
回复 支持 反对

使用道具 举报

发表于 2011-11-26 13:54:57 | 显示全部楼层
ooooooooooooooooooooo
回复 支持 反对

使用道具 举报

发表于 2011-11-26 22:42:32 | 显示全部楼层
ssssssaeeeeeeeeeeeeeeeeeeeeeeeeeeeeeeeeeeeeeeeeee
回复 支持 反对

使用道具 举报

发表于 2011-12-2 18:42:57 | 显示全部楼层
{:soso_e142:} 正要找谢谢
回复 支持 反对

使用道具 举报

发表于 2011-12-21 11:46:41 | 显示全部楼层
kkkkkkkkkkkkkkkkkkkkkkk
回复 支持 反对

使用道具 举报

发表于 2012-2-12 23:07:36 来自手机 | 显示全部楼层
cxxxxcxccxxxcccccc
回复 支持 反对

使用道具 举报

发表于 2012-2-15 21:49:16 | 显示全部楼层
看看 是不是好
回复 支持 反对

使用道具 举报

您需要登录后才可以回帖 登录 | 立即注册

本版积分规则

QQ|小黑屋|手机版|Archiver|聚优库

GMT+8, 2018-7-23 02:03 , Processed in 1.495476 second(s), 23 queries , Gzip On.

快速回复 返回顶部 返回列表