聚优库

 找回密码
 立即注册
查看: 6423|回复: 159

Taylor Swift - You Belong With Me[115/30t/141M/1440x1080/ts]-LongBT

  [复制链接]
发表于 2011-5-15 11:02:50 | 显示全部楼层 |阅读模式
原盘网高清影视论坛LongBT

56762929201105150652244096835870492_005.jpg
General
ID                               : 0 (0x0)
Complete name                    : E:\KuGou\Taylor Swift -  You Belong With Me.1440x1080.ts
Format                           : MPEG-TS
Format/Info                      : Advanced Video Codec
File size                        : 141 MiB
Duration                         : 3mn 46s
Overall bit rate                 : 5 233 Kbps

Video
ID                               : 4113 (0x1011)
Menu ID                          : 1 (0x1)
Format                           : AVC
Format/Info                      : Advanced Video Codec
Format profile                   : Main@L4.0
Format settings, CABAC           : Yes
Format settings, ReFrames        : 4 frames
Format settings, GOP             : M=1, N=4
Codec ID                         : 27
Duration                         : 3mn 46s
Bit rate mode                    : Variable
Bit rate                         : 4 586 Kbps
Maximum bit rate                 : 15.0 Mbps
Width                            : 1 440 pixels
Height                           : 1 080 pixels
Display aspect ratio             : 16:9
Frame rate                       : 29.970 fps
Standard                         : Component
Color space                      : YUV
Chroma subsampling               : 4:2:0
Bit depth                        : 8 bits
Scan type                        : Interlaced
Bits/(Pixel*Frame)               : 0.098
Stream size                      : 124 MiB (88%)
Color primaries                  : BT.709-5, BT.1361, IEC 61966-2-4, SMPTE RP177
Transfer characteristics         : BT.709-5, BT.1361
Matrix coefficients              : BT.709-5, BT.1361, IEC 61966-2-4 709, SMPTE RP177

Audio
ID                               : 4352 (0x1100)
Menu ID                          : 1 (0x1)
Format                           : AC-3
Format/Info                      : Audio Coding 3
Mode extension                   : CM (complete main)
Codec ID                         : 129
Duration                         : 3mn 46s
Bit rate mode                    : Constant
Bit rate                         : 384 Kbps
Channel(s)                       : 2 channels
Channel positions                : Front: L R
Sampling rate                    : 48.0 KHz
Bit depth                        : 16 bits
Compression mode                 : Lossy
Delay relative to video          : -1ms
Stream size                      : 10.4 MiB (7%)

原盘网高清影视论坛LongBT提醒-影片下载地址:

游客,如果您要查看本帖隐藏内容请回复

升级为VIP会员可以无限制下载,且无需回复直接获取下载地址



本视频来自互联网,仅供LongBT网友测试交流使用,请在24小时内请自觉删除。
若喜欢本片,请支持购买正版!转载注明"原盘网高清影视论坛LongBT"。
发表于 2011-7-1 21:00:06 | 显示全部楼层
喜欢。。。。。。。
发表于 2011-7-4 17:43:39 | 显示全部楼层
好。。。。。。。。。。。。。。。。。。。。。。。。。。
发表于 2011-8-9 21:50:00 | 显示全部楼层
0000000000000000
发表于 2011-8-13 14:53:26 | 显示全部楼层
{:soso_e100:} {:soso_e177:}
发表于 2011-9-14 00:06:00 | 显示全部楼层
呵呵,找个机会...  
发表于 2011-9-14 00:06:00 | 显示全部楼层
顶也~  
发表于 2011-9-14 00:06:00 | 显示全部楼层
帮顶  
发表于 2011-9-14 00:06:00 | 显示全部楼层
嘿嘿  
发表于 2011-9-14 00:06:00 | 显示全部楼层
真是有你的!  
发表于 2011-9-14 00:06:00 | 显示全部楼层
你加油吧  
发表于 2011-9-14 00:06:00 | 显示全部楼层
呵呵 大家好奇嘛 来观看下~~~~  
发表于 2011-9-14 00:06:00 | 显示全部楼层
厉害!强~~~~没的说了!  
发表于 2011-9-22 20:04:48 | 显示全部楼层
谢谢分享啦~~
发表于 2011-9-23 08:56:17 | 显示全部楼层
阿斯计划是,放假。房间里面
发表于 2011-9-26 15:01:59 | 显示全部楼层

RE: Taylor Swift - You Belong With Me

不够了啊!
发表于 2011-10-3 22:52:00 | 显示全部楼层
不错,看看。  
发表于 2011-10-3 22:52:00 | 显示全部楼层
天啊.  
发表于 2011-10-3 22:52:00 | 显示全部楼层
看看..  
发表于 2011-10-3 22:52:00 | 显示全部楼层
加油啊!偶一定会追随你左右,偶坚定此贴必然会起到抛砖引玉的作用~  
您需要登录后才可以回帖 登录 | 立即注册

本版积分规则

QQ|小黑屋|手机版|Archiver|聚优库

GMT+8, 2018-6-22 19:02 , Processed in 2.310228 second(s), 24 queries , Gzip On.

快速回复 返回顶部 返回列表